<?xml version="1.0" standalone="no"?>
<!DOCTYPE svg PUBLIC "-//W3C//DTD SVG 1.1//EN" "http://www.w3.org/Graphics/SVG/1.1/DTD/svg11.dtd">
<svg xmlns="http://www.w3.org/2000/svg">
<defs >
<font id="Oxygen" horiz-adv-x="894" ><font-face
    font-family="Oxygen Light"
    units-per-em="2048"
    panose-1="2 0 3 3 0 0 0 0 0 0"
    ascent="2103"
    descent="-483"
    alphabetic="0" />
<glyph unicode=" " horiz-adv-x="463" />
<glyph unicode="!" horiz-adv-x="650" d="M292 419L233 1425V1514H410V1425L358 419H292ZM325 -8Q264 -8 233 27T202 111Q202 158 233 193T325 228Q387 228 418 193T449 111Q449 63 418 28T325 -8Z" />
<glyph unicode="&quot;" horiz-adv-x="676" d="M168 1034L153 1514H271L239 1034H168ZM427 1034L412 1514H530L498 1034H427Z" />
<glyph unicode="#" horiz-adv-x="1108" d="M180 -28L254 414H109L119 505H270L348 951H185L195 1041H363L437 1464H541L467 1041H737L811 1464H915L841 1041H984L969 952H826L747 505H902L892 414H732L655 -28H550L628 414H358L281 -28H180ZM374 505H644L721 952H452L374
505Z" />
<glyph unicode="$" horiz-adv-x="1247" d="M679 -23V-213H592V-22Q426 -14 299 24T99 105L147 196Q332 96 592 84V737L499 756Q298 796 198 882T97 1127Q97 1223 132 1295T233 1413T389 1483T592 1513V1741H679V1514Q799 1510 912 1480T1098 1413L1065 1315Q1010
1345 903 1374T679 1407V838L761 821Q861 800 930 771T1053 696T1133 582T1159 419Q1159 282 1098 183T929 32T679 -23ZM592 856V1406Q410 1396 319 1326T228 1114Q228 1019 295 962T493 876L592 856ZM679 720V82Q846 85 935 173T1025 422Q1025 482 1014 523T973
601T886 664T739 708L679 720Z" />
<glyph unicode="&amp;" horiz-adv-x="1496" d="M638 -22Q505 -22 407 9T251 97T168 223T141 380Q141 463 164 532T235 658T342 760T487 849Q450 893 433 914T390 971T352 1030T326 1085T307 1148T302 1213Q302 1346 400 1430T678 1514Q830 1514 928 1432T1027
1205Q1027 1143 1001 1088T922 985T808 900T659 821L1168 288Q1238 363 1284 471L1356 414Q1314 315 1235 216L1390 62L1315 -6L1161 147Q1055 67 929 23T638 -22ZM626 74Q758 74 886 113T1089 219L564 773Q262 608 262 376Q262 298 291 239T372 144T488 92T626
74ZM601 891Q637 909 656 919T708 947T758 977T801 1007T841 1041T873 1078T898 1119T913 1165T919 1217Q919 1311 853 1362T690 1414Q543 1414 478 1360T413 1214Q413 1139 471 1048T601 891Z" />
<glyph unicode="&apos;" horiz-adv-x="415" d="M152 1020L137 1514H267L247 1020H152Z" />
<glyph unicode="(" horiz-adv-x="590" d="M379 -239Q252 -63 180 166T108 627Q108 1111 376 1514H495Q355 1277 299 1070T242 633Q242 182 495 -239H379Z" />
<glyph unicode=")" horiz-adv-x="590" d="M95 -239Q348 183 348 633Q348 862 291 1069T94 1514H212Q482 1104 482 627Q482 394 410 167T210 -239H95Z" />
<glyph unicode="*" horiz-adv-x="1106" d="M352 573L218 655L468 1005L99 1092L143 1240L506 1077L468 1514H635L598 1077L962 1240L1007 1093L633 1005Q652 976 738 863T888 655Q853 630 821 614T756 574L548 961L352 573Z" />
<glyph unicode="+" horiz-adv-x="1101" d="M500 157V600H108V700H502V1135H610V700H992V600H610V157H500Z" />
<glyph unicode="," horiz-adv-x="504" d="M130 -275L210 235H339V194Q298 16 202 -275H130Z" />
<glyph unicode="-" horiz-adv-x="670" d="M93 531V641H577V531H93Z" />
<glyph unicode="." horiz-adv-x="517" d="M290 -8Q237 -8 210 23T183 96Q183 137 210 168T290 199Q345 199 372 168T399 96Q399 54 372 23T290 -8Z" />
<glyph unicode="/" horiz-adv-x="953" d="M49 -174L750 1514H863L161 -174H49Z" />
<glyph unicode="0" horiz-adv-x="1216" d="M608 91Q761 91 855 274T949 768Q949 1072 855 1252T609 1433Q456 1433 362 1252T269 766Q269 456 362 274T608 91ZM735 -24T609 -24T387 33T232 195T143 443T113 763Q113 1138 240 1343T609 1548T975 1344T1101 763Q1101
585 1072 443T984 196T830 33Z" />
<glyph unicode="1" horiz-adv-x="599" d="M274 0V1356Q242 1333 173 1299T34 1241V1349Q244 1446 297 1488H402V0H274Z" />
<glyph unicode="2" horiz-adv-x="1144" d="M132 0L102 127L621 731Q723 852 773 941T823 1116Q823 1258 756 1333T556 1409Q461 1409 370 1381T220 1297L173 1394Q298 1514 561 1514Q752 1514 862 1409T973 1133Q973 1018 915 907T722 640L272 123H985L977 0H132Z" />
<glyph unicode="3" horiz-adv-x="1115" d="M532 -23Q401 -23 298 13T156 86L203 189Q339 83 520 83Q679 83 772 166T866 404Q866 483 843 542T782 638T685 699T565 732T424 745H366V857H410Q466 859 511 864T607 881T695 914T763 965T810 1042T826 1147Q826 1409
534 1409Q434 1409 346 1381T203 1302L157 1406Q285 1516 569 1516Q641 1516 707 1495T828 1432T915 1322T948 1166Q948 883 687 804Q990 726 995 410Q998 217 870 97T532 -23Z" />
<glyph unicode="4" horiz-adv-x="1192" d="M798 0V402H116V538L802 1521H922V512H1108L1093 402H922V0H798ZM253 512H798V1314L253 512Z" />
<glyph unicode="5" horiz-adv-x="1195" d="M563 -23Q296 -23 129 111L174 207Q330 82 569 82Q732 82 830 191T928 478Q928 626 844 724T634 823Q543 823 480 798T335 711L210 720L244 1488H1005L992 1377H353L323 832Q450 928 610 931Q747 933 853 871T1013 706T1067
483Q1067 253 931 115T563 -23Z" />
<glyph unicode="6" horiz-adv-x="1196" d="M604 -23Q493 -23 400 18T247 129T154 288T121 473Q121 517 126 554T138 623T165 696T202 768T259 856T329 955T423 1081Q474 1145 562 1246T712 1418L775 1488H912L387 849Q447 884 508 900T646 916Q732 916 812 880T952
781T1048 631T1084 444Q1084 251 948 114T604 -23ZM602 88Q758 88 856 194T955 443Q955 542 915 625T795 760T607 813Q521 813 453 784T341 704T276 588T253 448Q253 381 277 317T345 201T456 119T602 88Z" />
<glyph unicode="7" horiz-adv-x="1059" d="M276 0L817 1377H116L131 1488H926L942 1365L414 0H276Z" />
<glyph unicode="8" horiz-adv-x="1196" d="M601 -23Q468 -23 361 22T187 162T121 384Q121 531 212 644T466 803Q316 844 235 930T153 1144Q153 1314 277 1414T602 1514Q800 1514 921 1415T1043 1144Q1043 1017 965 931T747 803Q900 758 988 645T1076 384Q1076
288 1039 210T937 81T786 4T601 -23ZM601 82Q747 82 844 163T941 378Q941 522 849 616T601 750Q445 710 351 616T256 379Q256 245 355 164T601 82ZM601 856Q912 917 912 1146Q912 1271 821 1339T601 1407Q471 1407 379 1339T286 1146Q286 919 601 856Z" />
<glyph unicode="9" horiz-adv-x="1142" d="M265 0L824 677Q768 641 697 619T557 596Q436 596 331 649T160 807T93 1046Q93 1141 127 1226T223 1375T377 1476T581 1514Q697 1514 789 1475T938 1368T1026 1214T1056 1030Q1056 883 1012 782T824 478L725 358Q626
239 527 120T428 0H265ZM577 704Q666 704 735 733T847 811T910 921T932 1050Q932 1120 910 1183T845 1297T735 1377T584 1407Q474 1407 389 1354T262 1220T219 1047Q219 898 317 801T577 704Z" />
<glyph unicode=":" horiz-adv-x="510" d="M167 -37V174H346V-37H167ZM167 927V1136H346V927H167Z" />
<glyph unicode=";" horiz-adv-x="550" d="M152 -302L208 165H370L245 -302H152ZM197 928V1136H376V928H197Z" />
<glyph unicode="&lt;" horiz-adv-x="1165" d="M1052 113L98 579V658L1054 1158V1032L247 622L1052 240V113Z" />
<glyph unicode="=" horiz-adv-x="1240" d="M150 390V500H1090V390H150ZM149 829V941H1091V829H149Z" />
<glyph unicode="&gt;" horiz-adv-x="1167" d="M113 122V250L919 622L116 1042V1165L1070 656V577L113 122Z" />
<glyph unicode="?" horiz-adv-x="855" d="M314 395Q309 449 337 525T410 681T500 843T577 1013T609 1174Q608 1281 546 1345T382 1410Q308 1410 236 1385T117 1330L83 1426Q143 1468 233 1492T394 1517Q556 1517 649 1419T742 1173Q742 1105 719 1035T656 894T572
754T473 587T379 395H314ZM363 -1Q313 -1 288 28T262 96Q262 134 287 163T363 192Q414 192 439 164T464 96T439 28T363 -1Z" />
<glyph unicode="@" horiz-adv-x="1867" d="M882 -82Q656 -82 487 7T225 270T131 682Q131 857 193 1010T366 1274T634 1450T978 1514Q1194 1514 1365 1434T1635 1199T1735 839Q1735 747 1710 665T1640 521T1539 416T1415 349T1281 326Q1204 326 1151 373T1084 494Q1045
423 969 378T784 332Q714 332 665 368T593 463T571 598Q571 669 591 745T651 892T747 1019T879 1109T1042 1143Q1104 1143 1187 1129T1332 1095Q1317 1048 1286 957T1238 815T1207 702T1192 599Q1192 522 1218 469T1292 416Q1348 416 1405 446T1509 529T1586 666T1616
848Q1616 1021 1535 1149T1312 1342T987 1407Q867 1407 760 1380T559 1293T397 1149T290 941T251 670Q251 366 420 192T885 17Q1099 17 1305 102L1331 5Q1243 -34 1123 -58T882 -82ZM806 423Q876 423 925 445T1009 520T1058 610T1099 727Q1104 741 1106 748Q1148
878 1193 1034Q1138 1060 1036 1060Q971 1060 914 1032T817 956T748 850T705 729T691 610Q691 527 720 475T806 423Z" />
<glyph unicode="A" horiz-adv-x="1276" d="M6 0L587 1488H710L1270 0H1138L948 505H331L133 0H6ZM380 599H902Q677 1245 647 1359Q635 1315 568 1125T440 767L380 599Z" />
<glyph unicode="B" horiz-adv-x="1265" d="M182 0V1488H588Q865 1488 992 1396T1120 1116Q1120 1094 1120 1083T1115 1040T1103 985T1076 931T1033 874T966 826T873 785Q1029 762 1112 660T1195 419Q1195 222 1070 111T686 0H182ZM310 100H653Q1058 100 1058 419Q1058
592 946 659T595 727H310V100ZM310 825H651Q730 825 787 837T890 879T960 966T984 1107Q984 1263 888 1323T582 1384H310V825Z" />
<glyph unicode="C" horiz-adv-x="1286" d="M813 -23Q642 -23 508 35T290 198T162 442T118 749Q118 971 199 1142T443 1414T826 1514Q1069 1514 1240 1412L1179 1313Q1023 1407 827 1407Q690 1407 581 1356T403 1213T297 1002T260 742Q260 605 293 489T394 281T574
137T832 84Q989 84 1182 171L1208 68Q1062 -23 813 -23Z" />
<glyph unicode="D" horiz-adv-x="1498" d="M310 107H602Q912 107 1074 265T1237 738Q1237 910 1192 1035T1058 1235T850 1346T573 1382H310V107ZM182 0V1488H585Q767 1488 910 1445T1160 1314T1323 1081T1380 743Q1380 378 1179 189T616 0H182Z" />
<glyph unicode="E" horiz-adv-x="1142" d="M182 0V1488H1011L1006 1382H310V822H972V713H310V107H1028L1017 0H182Z" />
<glyph unicode="F" horiz-adv-x="1025" d="M182 0V1488H982L976 1377H311V789H946V686H311V0H182Z" />
<glyph unicode="G" horiz-adv-x="1469" d="M821 -23Q685 -23 571 15T373 123T233 287T147 497T118 740Q118 965 202 1138T452 1413T847 1514Q1097 1514 1291 1399L1234 1296Q1152 1346 1049 1376T848 1407Q702 1407 588 1355T402 1212T295 1001T258 742Q258 593
295 473T406 266T596 131T864 83Q1021 83 1210 158V634H841L849 745H1329V89Q1207 26 1093 2T821 -23Z" />
<glyph unicode="H" horiz-adv-x="1474" d="M182 0V1488H310V830H1164V1488H1292V0H1164V718H310V0H182Z" />
<glyph unicode="I" horiz-adv-x="514" d="M193 0V1488H321V0H193Z" />
<glyph unicode="J" horiz-adv-x="512" d="M1 -138L-20 -46L40 -43Q72 -43 98 -38T143 -27T176 -6T200 19T217 51T227 87T232 128T234 170T234 216V1514H367V303Q367 240 367 209T363 129T354 56T336 -2T306 -52T262 -88T200 -117T119 -132T13 -138H1Z" />
<glyph unicode="K" horiz-adv-x="1224" d="M182 0V1488H311V719Q355 768 427 847T651 1095T905 1376L1006 1488H1175L554 817L1226 0H1063L456 739L311 603V0H182Z" />
<glyph unicode="L" horiz-adv-x="998" d="M182 0V1488H311V113H980L974 0H182Z" />
<glyph unicode="M" horiz-adv-x="1804" d="M182 0V1488H362L913 231L1449 1488H1622V0H1495V1001L1502 1339L1465 1219L976 85H836L341 1222L302 1342L309 996V0H182Z" />
<glyph unicode="N" horiz-adv-x="1499" d="M182 0V1488H331L1150 233L1203 160Q1196 468 1196 543V1488H1317V0H1165L348 1253L297 1326Q305 1101 305 938V0H182Z" />
<glyph unicode="O" horiz-adv-x="1627" d="M815 82Q999 82 1124 166T1308 396T1367 745Q1367 1061 1227 1234T816 1407Q543 1407 401 1235T258 745Q258 438 399 260T815 82ZM815 -23Q645 -23 512 33T293 192T163 435T118 744Q118 1098 300 1306T816 1514Q1143
1514 1326 1305T1509 743Q1509 578 1464 439T1334 196T1115 35T815 -23Z" />
<glyph unicode="P" horiz-adv-x="1167" d="M182 0V1488H637Q733 1488 812 1468T954 1404T1053 1288T1088 1116Q1088 1059 1083 1014T1062 920T1022 836T955 767T857 713T721 680T543 668Q437 668 311 681V0H182ZM556 779Q672 779 753 802T874 854T935 936T958
1021T961 1111Q961 1115 961 1117Q961 1248 872 1312T642 1376H311V791Q399 779 556 779Z" />
<glyph unicode="Q" horiz-adv-x="1612" d="M1253 -470Q1252 -468 1229 -438T1169 -359T1092 -253T1012 -131T947 -12Q878 -23 807 -23Q635 -23 503 33T287 193T161 435T118 746Q118 1103 295 1308T809 1514Q1138 1514 1316 1307T1494 745Q1494 482 1388 290T1069
17Q1087 -15 1117 -65T1223 -224T1351 -386L1253 -470ZM537 91T807 91T1212 264T1347 747Q1347 1066 1211 1233T808 1400Q540 1400 401 1233T262 747Q262 438 399 265Z" />
<glyph unicode="R" horiz-adv-x="1333" d="M182 0V1488H606Q687 1488 746 1485T868 1472T973 1446T1056 1401T1120 1334T1157 1239T1171 1114Q1171 977 1104 879T899 746Q959 623 989 559L1233 0H1084L874 509Q853 559 780 725Q760 722 632 722L310 728V0H182ZM687
828Q886 828 965 897T1044 1112Q1044 1242 973 1311T729 1381H310V831Q545 828 687 828Z" />
<glyph unicode="S" horiz-adv-x="1247" d="M658 -23Q469 -23 324 17T99 105L147 196Q358 82 669 82Q840 82 932 171T1025 422Q1025 482 1014 523T973 601T886 664T739 708L499 756Q298 796 198 882T97 1127Q97 1230 137 1305T252 1426T427 1492T654 1514Q780 1514
900 1483T1098 1413L1065 1315Q1006 1348 891 1377T651 1407Q440 1407 334 1337T228 1114Q228 1019 295 962T493 876L761 821Q861 800 930 771T1053 696T1133 582T1159 419Q1159 209 1022 93T658 -23Z" />
<glyph unicode="T" horiz-adv-x="1082" d="M476 0V1378H8V1488H1074V1378H606V0H476Z" />
<glyph unicode="U" horiz-adv-x="1408" d="M699 -23Q555 -23 449 16T280 128T187 297T157 517V1488H285V497Q285 284 390 182T707 79Q1123 79 1123 498V1488H1251V515Q1251 417 1232 336T1170 188T1064 75T908 3T699 -23Z" />
<glyph unicode="V" horiz-adv-x="1206" d="M531 0L-5 1488H137L475 529Q495 464 519 395T562 269T599 137Q606 173 619 215T664 349T726 535Q799 767 900 1025T1067 1488H1211L668 0H531Z" />
<glyph unicode="W" horiz-adv-x="1995" d="M464 0L2 1488H143L539 142L919 1448H1087L1458 143L1853 1488H1993L1532 0H1389L1006 1321L606 0H464Z" />
<glyph unicode="X" horiz-adv-x="1196" d="M18 0L521 786L49 1488H202L603 851L1021 1488H1158L686 794L1178 0H1032L600 706L156 0H18Z" />
<glyph unicode="Y" horiz-adv-x="1166" d="M501 0V589L5 1488H144L575 703L1020 1488H1161L632 593V0H501Z" />
<glyph unicode="Z" horiz-adv-x="1173" d="M97 0V111L923 1376H127V1488H1091V1384L259 113H1099L1091 0H97Z" />
<glyph unicode="[" horiz-adv-x="688" d="M147 -264V1514H595V1414H283V-164H595V-264H147Z" />
<glyph unicode="\" horiz-adv-x="816" d="M652 -11L62 1514H184L774 -11H652Z" />
<glyph unicode="]" horiz-adv-x="688" d="M93 -264V-164H405V1414H93V1514H541V-264H93Z" />
<glyph unicode="^" horiz-adv-x="1158" d="M84 558L521 1488H611L1071 558H958L565 1356L200 558H84Z" />
<glyph unicode="_" horiz-adv-x="1053" d="M73 -108V0H978V-108H73Z" />
<glyph unicode="`" horiz-adv-x="702" d="M460 1287L184 1674H342L533 1287H460Z" />
<glyph unicode="a" horiz-adv-x="1077" d="M440 -24Q285 -24 192 54T99 277Q99 363 136 426T243 529T404 591T615 622Q743 630 805 635V757Q805 883 748 946T563 1010Q389 1010 238 927Q234 937 220 970T199 1022Q261 1062 361 1089T557 1116Q754 1116 840 1032T926
732V0H829Q824 23 815 91T805 161Q676 -24 440 -24ZM444 75Q572 75 671 150T802 360V547Q658 535 657 535Q413 513 318 455T223 275Q223 175 283 125T444 75Z" />
<glyph unicode="b" horiz-adv-x="1187" d="M619 -24Q396 -24 264 159L251 0H147V1521L270 1532V1163Q270 994 267 930Q328 1024 422 1070T619 1116Q841 1116 965 958T1090 549Q1090 381 1039 254T879 51T619 -24ZM625 75Q717 75 784 114T888 222T941 370T958 543Q958
617 949 682T915 810T854 917T759 988T625 1015Q452 1015 361 891T270 537Q270 432 289 350T350 205T461 109T625 75Z" />
<glyph unicode="c" horiz-adv-x="965" d="M604 -24Q445 -24 328 54T154 257T97 537Q97 655 131 759T227 943T388 1069T608 1116Q687 1116 765 1095T882 1045L843 952Q740 1010 599 1010Q428 1010 328 881T228 537Q228 332 327 206T599 79Q719 79 857 139L876 50Q829
15 754 -4T604 -24Z" />
<glyph unicode="d" horiz-adv-x="1183" d="M561 -23Q342 -23 220 129T97 549Q97 801 223 958T557 1116Q659 1116 761 1072T916 935V968V1521L1036 1532V0H933L915 165Q858 72 761 25T561 -23ZM558 75Q651 75 721 109T833 205T895 347T916 526Q916 1015 556 1015Q471
1015 406 975T304 866T248 717T230 547Q230 470 241 403T277 274T339 170T432 101T558 75Z" />
<glyph unicode="e" horiz-adv-x="1093" d="M591 -24Q364 -24 231 128T97 540Q97 791 227 951T565 1116Q758 1116 875 978T992 608Q992 599 992 572T991 533H228Q230 322 330 199T594 75Q701 75 780 100T945 171L966 78Q800 -24 591 -24ZM233 633H857Q857 816 778
913T561 1011Q421 1011 335 907T233 633Z" />
<glyph unicode="f" horiz-adv-x="638" d="M216 0V1005H36L44 1082L216 1096V1137Q216 1353 291 1451T523 1549Q568 1549 676 1534L667 1452Q571 1463 537 1463Q423 1463 382 1390T340 1131V1096H607V1005H340V0H216Z" />
<glyph unicode="g" horiz-adv-x="1173" d="M316 -509L301 -398H533Q610 -398 669 -385T768 -350T837 -290T882 -213T906 -115T917 -4T919 124Q919 113 917 129Q912 198 912 198Q849 103 763 52T553 0Q455 0 375 35T243 126T156 254T106 397T91 539Q91 627 105
706T156 862T246 993T385 1082T577 1116Q682 1116 762 1075T912 942L924 1096H1034V80Q1034 14 1033 -26T1021 -136T992 -250T935 -349T844 -434T707 -487T517 -509H316ZM569 101Q642 101 701 124T798 186T863 277T901 384T912 499V613Q912 691 893 760T835 887T726
980T566 1014Q492 1014 433 986T335 910T271 800T235 672T224 537Q224 476 233 419T267 302T330 200T429 129T569 101Z" />
<glyph unicode="h" horiz-adv-x="1149" d="M147 0V1521L271 1532V1009Q271 988 271 980T271 971T270 960T268 930Q402 1116 652 1116Q1009 1116 1009 685V0H886V661Q886 846 829 928T628 1011Q485 1011 390 936T273 741Q271 701 271 622V0H147Z" />
<glyph unicode="i" horiz-adv-x="445" d="M160 0V1096H285V0H160ZM160 1320V1488H284V1320H160Z" />
<glyph unicode="j" horiz-adv-x="408" d="M-58 -550L-77 -450H-28Q42 -450 81 -440T137 -395T158 -329T161 -222Q161 -220 161 -219V1096H286V-247Q286 -341 274 -397T227 -488T138 -537T-9 -550H-58ZM161 1321V1488H286V1321H161Z" />
<glyph unicode="k" horiz-adv-x="986" d="M149 0V1522L272 1532V663V568Q281 579 336 639T398 707L777 1096H944L485 638L976 0H819L400 568L272 450V0H149Z" />
<glyph unicode="l" horiz-adv-x="581" d="M423 -23Q285 -23 221 39T157 243V1522L279 1532V250Q279 150 315 112T426 74Q486 74 576 97L581 1Q483 -23 423 -23Z" />
<glyph unicode="m" horiz-adv-x="1805" d="M150 0Q147 994 147 1096H255L271 928Q319 1010 414 1063T617 1116Q880 1116 947 909Q1064 1116 1316 1116Q1496 1116 1580 1014T1665 708V0H1541V536Q1541 612 1539 663T1530 774T1507 872T1466 944T1402 994T1310 1010Q1184
1010 1097 936T975 726Q977 624 980 568V0H857V558Q857 643 852 705T832 828T792 926T724 987T622 1010Q486 1010 395 938T276 740Q274 699 274 623V0H150Z" />
<glyph unicode="n" horiz-adv-x="1152" d="M147 0V1096H255L272 927Q331 1015 430 1065T645 1116Q834 1116 923 1012T1012 680V0H887V736Q882 882 825 946T638 1010Q489 1010 395 935T276 741Q272 694 272 643V0H147Z" />
<glyph unicode="o" horiz-adv-x="1190" d="M601 75Q721 75 803 138T923 306T961 545Q961 757 871 886T597 1015Q477 1015 393 951T269 782T230 542Q230 337 325 206T601 75ZM592 -24Q443 -24 330 51T157 254T97 545Q97 667 131 771T230 952T389 1072T600 1116Q754
1116 867 1041T1036 838T1093 547Q1093 383 1035 255T862 52T592 -24Z" />
<glyph unicode="p" horiz-adv-x="1175" d="M147 -488V1096H258L269 940Q346 1028 425 1072T611 1116Q845 1116 961 961T1078 535Q1078 289 955 133T622 -24Q514 -24 418 27T266 161Q271 38 271 -81V-479L147 -488ZM614 78Q699 78 765 119T870 228T928 376T948
544Q948 632 929 712T872 860T766 970T613 1011Q520 1011 453 978T346 882T288 741T270 563Q270 449 287 364T342 213T449 112T614 78Z" />
<glyph unicode="q" horiz-adv-x="1179" d="M908 -488V13Q908 97 913 165Q855 72 755 24T554 -24Q410 -24 305 49T149 246T97 532Q97 705 148 835T306 1040T562 1116Q767 1116 913 931L921 1096H1032V-481L908 -488ZM554 84Q900 84 905 525Q905 637 887 723T828
874T719 974T553 1009Q482 1009 426 982T333 910T273 804T238 679T228 544Q228 451 245 372T298 227T400 122T554 84Z" />
<glyph unicode="r" horiz-adv-x="715" d="M149 0Q147 965 147 1096H249L257 880Q316 978 407 1040T597 1102Q638 1102 685 1095L676 992Q640 998 600 998Q461 998 367 889T272 629V0H149Z" />
<glyph unicode="s" horiz-adv-x="944" d="M467 -25Q361 -25 268 1T121 63L139 167Q304 81 455 81Q726 81 736 282Q736 366 682 414T463 514Q377 544 368 547Q111 625 109 824Q109 939 210 1027T485 1116T810 1048L768 956Q614 1014 482 1014Q366 1014 300 962T233
822Q233 748 276 709T449 633Q463 629 500 615T542 600Q715 547 783 475T852 277Q849 133 745 54T467 -25Z" />
<glyph unicode="t" horiz-adv-x="676" d="M456 -23Q318 -23 254 39T190 243V1005H35L44 1080L192 1094L225 1345L312 1351V1096H632V1005H312V269Q312 153 350 114T484 74Q546 74 638 97L643 1Q522 -23 456 -23Z" />
<glyph unicode="u" horiz-adv-x="1106" d="M555 -27Q469 -27 396 -8T259 53T160 171T123 350V1096H247V347Q247 269 271 215T340 134T436 95T555 84Q622 84 673 95T768 135T835 216T859 347V1096H983V350Q983 266 959 200T895 92T799 23T683 -16T555 -27Z" />
<glyph unicode="v" horiz-adv-x="989" d="M419 0L1 1096H134L388 405Q408 340 435 267T480 152L497 111Q516 175 546 248T602 402Q629 488 700 661T855 1096H988L563 0H419Z" />
<glyph unicode="w" horiz-adv-x="1557" d="M328 0L22 1096H152L405 117Q678 995 710 1096H862Q1161 120 1164 120L1406 1096H1535L1234 0H1090Q1087 -1 949 461T789 1004Q777 950 698 700T546 224T472 0H328Z" />
<glyph unicode="x" horiz-adv-x="1012" d="M37 0L446 555L50 1096H188L508 644L826 1096H967L572 551L975 0H842L509 465L177 0H37Z" />
<glyph unicode="y" horiz-adv-x="981" d="M98 -520Q56 -520 13 -512L4 -410Q7 -410 33 -411T73 -413Q199 -413 262 -370T374 -202Q380 -185 405 -116T445 -7L7 1096H137L510 110Q510 110 555 248Q830 1107 837 1106Q838 1106 836 1096H966Q528 -135 508 -192Q439
-358 346 -439T98 -520Z" />
<glyph unicode="z" horiz-adv-x="882" d="M89 0V104L668 997H99V1096H798V979L217 93H816V0H89Z" />
<glyph unicode="{" horiz-adv-x="709" d="M613 -277Q443 -276 369 -181T294 95V255Q294 317 291 360T275 450T241 525T180 571T86 590V689Q121 690 148 694T196 707T233 728T259 755T277 790T287 831T292 878T294 932T294 991Q294 1013 294 1025V1236Q294 1384
378 1470T613 1557V1461Q503 1460 462 1401T420 1197V934Q420 769 247 637Q294 618 329 584T383 509T411 426T420 342V82Q420 -65 461 -122T613 -181V-277Z" />
<glyph unicode="|" horiz-adv-x="817" d="M349 -413V1606H468V-413H349Z" />
<glyph unicode="}" horiz-adv-x="716" d="M99 -277V-181Q208 -180 250 -122T293 82V342Q293 431 326 491T464 646Q418 660 383 692T329 766T302 849T293 934V1197Q293 1340 251 1400T99 1461V1557Q418 1557 418 1184V1025Q418 972 420 937T428 859T449 789T485
738T544 702T628 689V590Q572 590 533 572T471 525T437 449T422 360T418 255V42Q418 -104 336 -190T99 -277Z" />
<glyph unicode="~" horiz-adv-x="1236" d="M156 524L116 603Q151 693 219 748T379 803Q436 803 485 789T618 735Q637 727 674 709T731 683T777 665T824 650T861 645Q920 645 976 696T1057 814L1106 744Q1068 638 1010 588T861 537Q777 537 640 598Q564 634 533
648T456 677T377 692Q313 692 253 645T156 524Z" />
<glyph unicode="&#xa0;" horiz-adv-x="463" />
<glyph unicode="&#xa1;" horiz-adv-x="650" d="M235 -402V-312L285 694H351L412 -312V-402H235ZM325 892Q263 892 233 927T202 1009T232 1091T325 1127Q386 1127 417 1092T449 1009T418 927T325 892Z" />
<glyph unicode="&#xa2;" horiz-adv-x="985" d="M567 -162V-28Q476 -19 398 18T265 112T173 240T116 386T97 537Q98 613 116 691T174 843T267 976T399 1076T567 1126V1281H644V1127Q729 1123 800 1098T911 1033L870 950Q774 1014 644 1023V75Q765 87 870 156L908
73Q865 30 793 4T644 -28V-162H567ZM567 77V1022Q472 1008 395 938T276 761T233 535Q233 422 273 324T391 159T567 77Z" />
<glyph unicode="&#xa3;" horiz-adv-x="1124" d="M101 0L92 105Q277 169 277 436V696H91V800H277V890Q277 961 280 1019T295 1144T324 1262T374 1363T448 1444T553 1495T693 1515Q889 1515 1037 1390L971 1303Q841 1407 690 1407Q533 1407 469 1297T405 977V800H832V695H405V526Q405
461 403 416T392 320T368 232T325 159T257 96Q307 99 376 106T516 114H1041L1055 0H101Z" />
<glyph unicode="&#xa4;" horiz-adv-x="1146" d="M1027 234L840 412Q723 314 574 314Q419 314 306 412L121 235L58 294L243 474Q157 590 157 732Q157 872 243 989L57 1171L121 1230L306 1053Q419 1151 574 1151Q725 1151 840 1053L1027 1230L1088 1168L904 989Q990
865 990 732Q990 585 905 474L1087 295L1027 234ZM574 402Q707 402 801 499T896 732T802 965T574 1063Q440 1063 346 966T252 732T346 499T574 402Z" />
<glyph unicode="&#xa5;" horiz-adv-x="1166" d="M501 0V338H96V448H501V629H95V741H430L5 1488H144L575 705L1020 1488H1161L719 741H1037V629H632V448H1036V338H632V0H501Z" />
<glyph unicode="&#xa6;" horiz-adv-x="775" d="M329 -200V502H449V-200H329ZM329 850V1549H449V850H329Z" />
<glyph unicode="&#xa8;" horiz-adv-x="769" d="M136 1266V1443H272V1266H136ZM512 1266V1443H649V1266H512Z" />
<glyph unicode="&#xa9;" horiz-adv-x="1886" d="M930 174Q793 174 683 243T511 434T450 707Q450 861 510 981T684 1169T946 1237Q1120 1237 1254 1142L1230 1032Q1186 1073 1103 1101T940 1130Q869 1130 809 1108T708 1046T637 954T595 840T582 714Q582 621 605
543T673 406T791 313T960 280Q1028 280 1105 305T1222 359L1258 257Q1205 225 1112 200T930 174ZM927 -24Q1032 -24 1131 4T1318 92T1472 234T1576 436T1614 694Q1614 834 1575 954T1468 1160T1311 1305T1121 1395T915 1424Q812 1424 715 1396T532 1309T381 1167T279
963T241 701Q241 583 268 480T343 298T455 157T597 56T757 -3T927 -24ZM924 -116Q803 -116 689 -84T472 14T294 175T174 405T129 698Q129 858 173 993T292 1222T469 1384T683 1482T918 1514Q1040 1514 1156 1482T1376 1382T1557 1219T1680 990T1726 698Q1726 540
1681 406T1559 177T1380 15T1162 -84T924 -116Z" />
<glyph unicode="&#xaa;" horiz-adv-x="830" d="M358 892Q305 892 256 912T170 978T133 1088Q133 1141 155 1180T213 1243T307 1284T422 1310T560 1326V1349Q560 1449 530 1498T424 1547Q364 1547 291 1528T178 1481L141 1554Q259 1624 428 1624Q529 1624 592 1564T656
1371V1027V902H595L572 1010Q544 951 487 922T358 892ZM363 968H369Q459 970 511 1036T563 1217V1256Q529 1254 511 1253T453 1246T388 1235T330 1216T279 1189T246 1152T232 1101V1098Q235 968 363 968ZM144 720V798H682V720H144Z" />
<glyph unicode="&#xab;" horiz-adv-x="962" d="M391 157L141 503L107 553L394 959L508 935L237 561L503 182L391 157ZM752 157L460 573L754 959L849 935L597 561L846 182L752 157Z" />
<glyph unicode="&#xac;" horiz-adv-x="1197" d="M967 268V707H99V817H1076V268H967Z" />
<glyph unicode="&#xad;" horiz-adv-x="1038" d="M123 140V255H922V140H123Z" />
<glyph unicode="&#xae;" horiz-adv-x="1865" d="M623 212V1202H966Q1138 1202 1220 1133T1302 936Q1302 891 1290 851T1251 772T1175 709T1058 678Q1077 652 1096 623T1144 547T1195 466T1266 349T1349 212H1214Q1021 544 941 658H735V212H623ZM736 754H941Q1071
754 1130 790T1190 924Q1190 1034 1134 1070T931 1107H736V754ZM927 -24Q1032 -24 1131 4T1318 92T1472 234T1576 436T1614 694Q1614 834 1575 954T1468 1160T1311 1305T1121 1395T915 1424Q812 1424 715 1396T532 1309T381 1167T279 963T241 701Q241 583 268 480T343
298T455 157T597 56T757 -3T927 -24ZM924 -116Q803 -116 689 -84T472 14T294 175T174 405T129 698Q129 858 173 993T292 1222T469 1384T683 1482T918 1514Q1040 1514 1156 1482T1376 1382T1557 1219T1680 990T1726 698Q1726 540 1681 406T1559 177T1380 15T1162
-84T924 -116Z" />
<glyph unicode="&#xaf;" horiz-adv-x="1131" d="M256 1270V1376H874V1270H256Z" />
<glyph unicode="&#xb0;" horiz-adv-x="844" d="M370 1011T422 1011T520 1034T596 1109T627 1231Q627 1302 597 1354T521 1430T422 1454Q369 1454 324 1430T249 1354T219 1231Q219 1161 249 1110T324 1035ZM418 932Q359 932 305 951T208 1006T138 1100T112 1231T138
1363T209 1458T308 1513T422 1533T536 1514T635 1459T705 1363T732 1231Q732 1160 705 1102T634 1007T534 952T418 932Z" />
<glyph unicode="&#xb1;" horiz-adv-x="1163" d="M526 215V654H95V765H525V1213H632V765H1067V654H635V215H526ZM95 0V121H1070V0H95Z" />
<glyph unicode="&#xb4;" horiz-adv-x="648" d="M126 1287L320 1674H474L201 1287H126Z" />
<glyph unicode="&#xb6;" horiz-adv-x="1007" d="M495 0Q493 863 492 863Q395 863 316 892T186 969T108 1077T81 1201Q81 1262 106 1317T179 1416T308 1487T488 1514H926V1417H854V0H762V1417H589V0H495Z" />
<glyph unicode="&#xb7;" horiz-adv-x="489" d="M170 610V772H320V610H170Z" />
<glyph unicode="&#xb8;" horiz-adv-x="599" d="M138 -410L245 11H304L267 -410H138Z" />
<glyph unicode="&#xb9;" horiz-adv-x="656" d="M181 681V747H285V1416Q256 1394 171 1344V1425Q265 1479 293 1514H378V747H485V681H181Z" />
<glyph unicode="&#xbb;" horiz-adv-x="941" d="M192 157L97 182L349 562L99 935L192 959L486 547L192 157ZM564 157L455 182L721 562L460 935L567 959L844 547L564 157Z" />
<glyph unicode="&#xbc;" horiz-adv-x="1553" d="M149 681V747H253V1416Q224 1394 139 1344V1425Q233 1479 261 1514H346V747H453V681H149ZM1270 0V218H895V289L1270 861H1363V300H1455L1463 218H1363V0H1270ZM281 0L1169 1514H1262L381 0H281ZM995 300H1270Q1269
685 1270 727L995 300Z" />
<glyph unicode="&#xbd;" horiz-adv-x="1493" d="M149 681V747H253V1416Q224 1394 139 1344V1425Q233 1479 261 1514H346V747H453V681H149ZM892 0V77Q1175 380 1262 492T1349 679Q1349 749 1302 790T1192 832Q1134 832 1085 804T991 704L909 735Q946 824 1022 872T1189
920Q1298 920 1375 853T1452 671Q1452 627 1436 582T1398 499T1329 407T1246 315T1138 204T1021 82H1435L1443 0H892ZM270 0L1158 1514H1251L370 0H270Z" />
<glyph unicode="&#xbe;" horiz-adv-x="1606" d="M359 625Q293 625 230 645T129 703L167 771Q223 728 265 716T355 703Q419 703 468 748T518 863Q518 1035 325 1035H236V1109H316Q396 1109 443 1147T487 1271Q484 1331 443 1369T336 1408Q292 1408 245 1393T174
1358L133 1429Q165 1452 221 1468T335 1484Q384 1484 427 1473T507 1437T564 1371T585 1273Q585 1237 576 1207T557 1160T525 1124T491 1098T452 1076Q605 1033 605 870Q605 754 536 690T359 625ZM1340 0V218H965V289L1340 861H1433V300H1525L1533 218H1433V0H1340ZM351
0L1239 1514H1332L451 0H351ZM1065 300H1340Q1339 685 1340 727L1065 300Z" />
<glyph unicode="&#xbf;" horiz-adv-x="794" d="M527 731Q532 677 504 601T431 445T341 283T264 113T232 -48Q233 -155 295 -219T459 -284Q533 -284 605 -259T724 -204L758 -300Q698 -342 608 -366T447 -391Q285 -391 192 -293T99 -47Q99 21 122 91T185 232T269
372T368 539T462 731H527ZM478 1127Q528 1127 553 1098T579 1030Q579 992 554 963T478 934Q427 934 402 962T377 1030T402 1098T478 1127Z" />
<glyph unicode="&#xc0;" horiz-adv-x="1276" d="M602 1616L326 2003H484L675 1616H602ZM6 0L587 1488H710L1270 0H1138L948 505H331L133 0H6ZM380 599H902Q677 1245 647 1359Q635 1315 568 1125T440 767L380 599Z" />
<glyph unicode="&#xc1;" horiz-adv-x="1276" d="M600 1616L794 2003H948L675 1616H600ZM6 0L587 1488H710L1270 0H1138L948 505H331L133 0H6ZM380 599H902Q677 1245 647 1359Q635 1315 568 1125T440 767L380 599Z" />
<glyph unicode="&#xc2;" horiz-adv-x="1276" d="M372 1616L540 1975H732L903 1616H812L637 1911L461 1616H372ZM6 0L587 1488H710L1270 0H1138L948 505H331L133 0H6ZM380 599H902Q677 1245 647 1359Q635 1315 568 1125T440 767L380 599Z" />
<glyph unicode="&#xc3;" horiz-adv-x="1276" d="M353 1616Q356 1723 397 1762T512 1802Q558 1802 655 1754T776 1706Q792 1706 803 1715T820 1742T828 1771T832 1802H923Q919 1701 884 1659T782 1616Q738 1616 633 1667T504 1719Q451 1719 443 1616H353ZM6 0L587
1488H710L1270 0H1138L948 505H331L133 0H6ZM380 599H902Q677 1245 647 1359Q635 1315 568 1125T440 767L380 599Z" />
<glyph unicode="&#xc4;" horiz-adv-x="1276" d="M382 1616V1793H518V1616H382ZM758 1616V1793H895V1616H758ZM6 0L587 1488H710L1270 0H1138L948 505H331L133 0H6ZM380 599H902Q677 1245 647 1359Q635 1315 568 1125T440 767L380 599Z" />
<glyph unicode="&#xc5;" horiz-adv-x="1276" d="M602 1573T640 1573T705 1601T733 1680Q732 1730 705 1758T639 1787Q601 1787 574 1759T546 1679Q546 1629 574 1601ZM641 1502Q566 1502 511 1549T455 1680Q455 1764 509 1811T638 1858Q712 1858 766 1811T821
1680Q821 1595 768 1549T641 1502ZM6 0L587 1488H710L1270 0H1138L948 505H331L133 0H6ZM380 599H902Q677 1245 647 1359Q635 1315 568 1125T440 767L380 599Z" />
<glyph unicode="&#xc6;" horiz-adv-x="1915" d="M6 0L892 1488H1786L1779 1377H1060L1101 822H1744V713H1109L1158 111H1801L1790 0H1053L1014 505H441L148 0H6ZM495 600H1006L950 1378L495 600Z" />
<glyph unicode="&#xc7;" horiz-adv-x="1286" d="M542 -430L649 -9H708L671 -430H542ZM813 -23Q642 -23 508 35T290 198T162 442T118 749Q118 971 199 1142T443 1414T826 1514Q1069 1514 1240 1412L1179 1313Q1023 1407 827 1407Q690 1407 581 1356T403 1213T297
1002T260 742Q260 605 293 489T394 281T574 137T832 84Q989 84 1182 171L1208 68Q1062 -23 813 -23Z" />
<glyph unicode="&#xc8;" horiz-adv-x="1142" d="M568 1616L292 2003H450L641 1616H568ZM182 0V1488H1011L1006 1382H310V822H972V713H310V107H1028L1017 0H182Z" />
<glyph unicode="&#xc9;" horiz-adv-x="1142" d="M568 1616L762 2003H916L643 1616H568ZM182 0V1488H1011L1006 1382H310V822H972V713H310V107H1028L1017 0H182Z" />
<glyph unicode="&#xca;" horiz-adv-x="1142" d="M340 1616L508 1975H700L871 1616H780L605 1911L429 1616H340ZM182 0V1488H1011L1006 1382H310V822H972V713H310V107H1028L1017 0H182Z" />
<glyph unicode="&#xcb;" horiz-adv-x="1142" d="M348 1616V1793H484V1616H348ZM724 1616V1793H861V1616H724ZM182 0V1488H1011L1006 1382H310V822H972V713H310V107H1028L1017 0H182Z" />
<glyph unicode="&#xcc;" horiz-adv-x="514" d="M220 1616L-56 2003H102L293 1616H220ZM193 0V1488H321V0H193Z" />
<glyph unicode="&#xcd;" horiz-adv-x="514" d="M220 1616L414 2003H568L295 1616H220ZM193 0V1488H321V0H193Z" />
<glyph unicode="&#xce;" horiz-adv-x="514" d="M-8 1616L160 1975H352L523 1616H432L257 1911L81 1616H-8ZM193 0V1488H321V0H193Z" />
<glyph unicode="&#xcf;" horiz-adv-x="514" d="M0 1616V1793H136V1616H0ZM376 1616V1793H513V1616H376ZM193 0V1488H321V0H193Z" />
<glyph unicode="&#xd0;" horiz-adv-x="1498" d="M310 107H602Q912 107 1074 265T1237 738Q1237 910 1192 1035T1058 1235T850 1346T573 1382H310V833H552V737H310V107ZM182 0V737H40V833H182V1488H585Q767 1488 910 1445T1160 1314T1323 1081T1380 743Q1380 378
1179 189T616 0H182Z" />
<glyph unicode="&#xd1;" horiz-adv-x="1499" d="M464 1616Q467 1723 508 1762T623 1802Q669 1802 766 1754T887 1706Q903 1706 914 1715T931 1742T939 1771T943 1802H1034Q1030 1701 995 1659T893 1616Q849 1616 744 1667T615 1719Q562 1719 554 1616H464ZM182
0V1488H331L1150 233L1203 160Q1196 468 1196 543V1488H1317V0H1165L348 1253L297 1326Q305 1101 305 938V0H182Z" />
<glyph unicode="&#xd2;" horiz-adv-x="1627" d="M777 1616L501 2003H659L850 1616H777ZM815 82Q999 82 1124 166T1308 396T1367 745Q1367 1061 1227 1234T816 1407Q543 1407 401 1235T258 745Q258 438 399 260T815 82ZM815 -23Q645 -23 512 33T293 192T163 435T118
744Q118 1098 300 1306T816 1514Q1143 1514 1326 1305T1509 743Q1509 578 1464 439T1334 196T1115 35T815 -23Z" />
<glyph unicode="&#xd3;" horiz-adv-x="1627" d="M776 1616L970 2003H1124L851 1616H776ZM815 82Q999 82 1124 166T1308 396T1367 745Q1367 1061 1227 1234T816 1407Q543 1407 401 1235T258 745Q258 438 399 260T815 82ZM815 -23Q645 -23 512 33T293 192T163 435T118
744Q118 1098 300 1306T816 1514Q1143 1514 1326 1305T1509 743Q1509 578 1464 439T1334 196T1115 35T815 -23Z" />
<glyph unicode="&#xd4;" horiz-adv-x="1627" d="M548 1616L716 1975H908L1079 1616H988L813 1911L637 1616H548ZM815 82Q999 82 1124 166T1308 396T1367 745Q1367 1061 1227 1234T816 1407Q543 1407 401 1235T258 745Q258 438 399 260T815 82ZM815 -23Q645 -23
512 33T293 192T163 435T118 744Q118 1098 300 1306T816 1514Q1143 1514 1326 1305T1509 743Q1509 578 1464 439T1334 196T1115 35T815 -23Z" />
<glyph unicode="&#xd5;" horiz-adv-x="1627" d="M528 1616Q531 1723 572 1762T687 1802Q733 1802 830 1754T951 1706Q967 1706 978 1715T995 1742T1003 1771T1007 1802H1098Q1094 1701 1059 1659T957 1616Q913 1616 808 1667T679 1719Q626 1719 618 1616H528ZM815
82Q999 82 1124 166T1308 396T1367 745Q1367 1061 1227 1234T816 1407Q543 1407 401 1235T258 745Q258 438 399 260T815 82ZM815 -23Q645 -23 512 33T293 192T163 435T118 744Q118 1098 300 1306T816 1514Q1143 1514 1326 1305T1509 743Q1509 578 1464 439T1334
196T1115 35T815 -23Z" />
<glyph unicode="&#xd6;" horiz-adv-x="1627" d="M557 1616V1793H693V1616H557ZM933 1616V1793H1070V1616H933ZM815 82Q999 82 1124 166T1308 396T1367 745Q1367 1061 1227 1234T816 1407Q543 1407 401 1235T258 745Q258 438 399 260T815 82ZM815 -23Q645 -23 512
33T293 192T163 435T118 744Q118 1098 300 1306T816 1514Q1143 1514 1326 1305T1509 743Q1509 578 1464 439T1334 196T1115 35T815 -23Z" />
<glyph unicode="&#xd7;" horiz-adv-x="1101" d="M864 261L557 569L249 262L172 339L480 646L173 954L250 1031L557 723L865 1030L942 953L634 646L941 338L864 261Z" />
<glyph unicode="&#xd8;" horiz-adv-x="1627" d="M480 -229L391 -192L487 44Q306 130 212 312T118 744Q118 977 197 1150T435 1420T816 1517Q953 1517 1070 1477L1163 1706L1257 1673L1161 1437Q1329 1347 1419 1167T1509 743Q1509 578 1464 439T1334 196T1115
35T815 -23Q684 -23 578 10L480 -229ZM530 150L1029 1376Q932 1410 816 1410Q544 1410 401 1236T258 745Q258 533 326 380T530 150ZM815 82Q999 82 1124 166T1308 396T1367 745Q1367 1176 1118 1332L619 111Q708 82 815 82Z" />
<glyph unicode="&#xd9;" horiz-adv-x="1408" d="M668 1616L392 2003H550L741 1616H668ZM699 -23Q555 -23 449 16T280 128T187 297T157 517V1488H285V497Q285 284 390 182T707 79Q1123 79 1123 498V1488H1251V515Q1251 417 1232 336T1170 188T1064 75T908 3T699 -23Z" />
<glyph unicode="&#xda;" horiz-adv-x="1408" d="M666 1616L860 2003H1014L741 1616H666ZM699 -23Q555 -23 449 16T280 128T187 297T157 517V1488H285V497Q285 284 390 182T707 79Q1123 79 1123 498V1488H1251V515Q1251 417 1232 336T1170 188T1064 75T908 3T699 -23Z" />
<glyph unicode="&#xdb;" horiz-adv-x="1408" d="M438 1616L606 1975H798L969 1616H878L703 1911L527 1616H438ZM699 -23Q555 -23 449 16T280 128T187 297T157 517V1488H285V497Q285 284 390 182T707 79Q1123 79 1123 498V1488H1251V515Q1251 417 1232 336T1170
188T1064 75T908 3T699 -23Z" />
<glyph unicode="&#xdc;" horiz-adv-x="1408" d="M448 1616V1793H584V1616H448ZM824 1616V1793H961V1616H824ZM699 -23Q555 -23 449 16T280 128T187 297T157 517V1488H285V497Q285 284 390 182T707 79Q1123 79 1123 498V1488H1251V515Q1251 417 1232 336T1170 188T1064
75T908 3T699 -23Z" />
<glyph unicode="&#xdd;" horiz-adv-x="1166" d="M546 1616L740 2003H894L621 1616H546ZM501 0V589L5 1488H144L575 703L1020 1488H1161L632 593V0H501Z" />
<glyph unicode="&#xde;" horiz-adv-x="1275" d="M182 0V1488H310V1191H679Q960 1191 1088 1096T1216 765Q1216 694 1203 635T1155 523T1068 434T931 377T738 356H310V0H182ZM310 458H744Q823 458 883 474T981 519T1042 588T1075 675T1085 775Q1085 884 1051 949T930
1050T695 1085H310V458Z" />
<glyph unicode="&#xdf;" horiz-adv-x="1205" d="M123 0V1060Q123 1293 230 1420T561 1548Q748 1548 852 1455T956 1205Q956 1157 944 1118T914 1053T864 1000T804 956T729 912T650 864Q691 830 753 790T865 720T971 648T1063 566T1125 470T1150 351Q1150 0 783
0H416L428 108H807Q909 108 967 175T1026 347Q1026 396 995 446T908 542T803 622T686 697T595 755Q586 761 572 771T551 786T535 799T522 814T515 828T512 846Q512 905 576 945Q601 961 643 985T707 1023T758 1058T801 1101T825 1152T836 1218Q836 1323 767 1386T567
1449Q481 1449 419 1421T320 1341T268 1225T251 1082V0H123Z" />
<glyph unicode="&#xe0;" horiz-adv-x="1077" d="M476 1474L200 1861H358L549 1474H476ZM440 -24Q285 -24 192 54T99 277Q99 363 136 426T243 529T404 591T615 622Q743 630 805 635V757Q805 883 748 946T563 1010Q389 1010 238 927Q234 937 220 970T199 1022Q261
1062 361 1089T557 1116Q754 1116 840 1032T926 732V0H829Q824 23 815 91T805 161Q676 -24 440 -24ZM444 75Q572 75 671 150T802 360V547Q658 535 657 535Q413 513 318 455T223 275Q223 175 283 125T444 75Z" />
<glyph unicode="&#xe1;" horiz-adv-x="1077" d="M475 1218L669 1605H823L550 1218H475ZM440 -24Q285 -24 192 54T99 277Q99 363 136 426T243 529T404 591T615 622Q743 630 805 635V757Q805 883 748 946T563 1010Q389 1010 238 927Q234 937 220 970T199 1022Q261
1062 361 1089T557 1116Q754 1116 840 1032T926 732V0H829Q824 23 815 91T805 161Q676 -24 440 -24ZM444 75Q572 75 671 150T802 360V547Q658 535 657 535Q413 513 318 455T223 275Q223 175 283 125T444 75Z" />
<glyph unicode="&#xe2;" horiz-adv-x="1077" d="M247 1474L415 1833H607L778 1474H687L512 1769L336 1474H247ZM440 -24Q285 -24 192 54T99 277Q99 363 136 426T243 529T404 591T615 622Q743 630 805 635V757Q805 883 748 946T563 1010Q389 1010 238 927Q234 937
220 970T199 1022Q261 1062 361 1089T557 1116Q754 1116 840 1032T926 732V0H829Q824 23 815 91T805 161Q676 -24 440 -24ZM444 75Q572 75 671 150T802 360V547Q658 535 657 535Q413 513 318 455T223 275Q223 175 283 125T444 75Z" />
<glyph unicode="&#xe3;" horiz-adv-x="1077" d="M228 1474Q231 1581 272 1620T387 1660Q433 1660 530 1612T651 1564Q667 1564 678 1573T695 1600T703 1629T707 1660H798Q794 1559 759 1517T657 1474Q613 1474 508 1525T379 1577Q326 1577 318 1474H228ZM440 -24Q285
-24 192 54T99 277Q99 363 136 426T243 529T404 591T615 622Q743 630 805 635V757Q805 883 748 946T563 1010Q389 1010 238 927Q234 937 220 970T199 1022Q261 1062 361 1089T557 1116Q754 1116 840 1032T926 732V0H829Q824 23 815 91T805 161Q676 -24 440 -24ZM444
75Q572 75 671 150T802 360V547Q658 535 657 535Q413 513 318 455T223 275Q223 175 283 125T444 75Z" />
<glyph unicode="&#xe4;" horiz-adv-x="1077" d="M256 1474V1651H392V1474H256ZM632 1474V1651H769V1474H632ZM440 -24Q285 -24 192 54T99 277Q99 363 136 426T243 529T404 591T615 622Q743 630 805 635V757Q805 883 748 946T563 1010Q389 1010 238 927Q234 937
220 970T199 1022Q261 1062 361 1089T557 1116Q754 1116 840 1032T926 732V0H829Q824 23 815 91T805 161Q676 -24 440 -24ZM444 75Q572 75 671 150T802 360V547Q658 535 657 535Q413 513 318 455T223 275Q223 175 283 125T444 75Z" />
<glyph unicode="&#xe5;" horiz-adv-x="1077" d="M476 1289T514 1289T579 1317T607 1396Q606 1446 579 1474T513 1503Q475 1503 448 1475T420 1395Q420 1345 448 1317ZM515 1218Q440 1218 385 1265T329 1396Q329 1480 383 1527T512 1574Q586 1574 640 1527T695
1396Q695 1311 642 1265T515 1218ZM440 -24Q285 -24 192 54T99 277Q99 363 136 426T243 529T404 591T615 622Q743 630 805 635V757Q805 883 748 946T563 1010Q389 1010 238 927Q234 937 220 970T199 1022Q261 1062 361 1089T557 1116Q754 1116 840 1032T926 732V0H829Q824
23 815 91T805 161Q676 -24 440 -24ZM444 75Q572 75 671 150T802 360V547Q658 535 657 535Q413 513 318 455T223 275Q223 175 283 125T444 75Z" />
<glyph unicode="&#xe6;" horiz-adv-x="1650" d="M436 -24Q372 -24 316 -9T209 40T129 138T99 289Q99 347 117 394T164 473T239 529T332 567T443 590T561 602T686 607H739V803Q739 1009 550 1009Q347 1009 189 913L146 1019Q203 1056 315 1086T527 1117Q574 1117
623 1104T720 1065T800 993T837 889Q873 971 934 1023T1060 1096T1199 1117Q1277 1117 1339 1090T1439 1021T1502 923T1536 814T1546 708Q1546 620 1489 576T1293 530Q924 513 869 513H865Q872 309 951 192T1191 75Q1293 75 1367 99T1535 175L1556 75Q1419 -24
1183 -24Q996 -24 880 95Q777 43 657 10T436 -24ZM446 75Q596 75 822 165Q777 254 758 332T732 515Q601 515 508 503T359 472T273 422T233 359T223 282Q223 173 285 124T446 75ZM868 607Q1273 619 1293 621Q1376 627 1400 646T1425 713Q1425 852 1365 931T1196
1011Q1127 1011 1071 987T979 924T918 831T882 722T868 607Z" />
<glyph unicode="&#xe7;" horiz-adv-x="965" d="M353 -431L460 -10H519L482 -431H353ZM604 -24Q445 -24 328 54T154 257T97 537Q97 655 131 759T227 943T388 1069T608 1116Q687 1116 765 1095T882 1045L843 952Q740 1010 599 1010Q428 1010 328 881T228 537Q228
332 327 206T599 79Q719 79 857 139L876 50Q829 15 754 -4T604 -24Z" />
<glyph unicode="&#xe8;" horiz-adv-x="1093" d="M508 1474L232 1861H390L581 1474H508ZM591 -24Q364 -24 231 128T97 540Q97 791 227 951T565 1116Q758 1116 875 978T992 608Q992 599 992 572T991 533H228Q230 322 330 199T594 75Q701 75 780 100T945 171L966
78Q800 -24 591 -24ZM233 633H857Q857 816 778 913T561 1011Q421 1011 335 907T233 633Z" />
<glyph unicode="&#xe9;" horiz-adv-x="1093" d="M507 1218L701 1605H855L582 1218H507ZM591 -24Q364 -24 231 128T97 540Q97 791 227 951T565 1116Q758 1116 875 978T992 608Q992 599 992 572T991 533H228Q230 322 330 199T594 75Q701 75 780 100T945 171L966
78Q800 -24 591 -24ZM233 633H857Q857 816 778 913T561 1011Q421 1011 335 907T233 633Z" />
<glyph unicode="&#xea;" horiz-adv-x="1093" d="M279 1218L447 1577H639L810 1218H719L544 1513L368 1218H279ZM591 -24Q364 -24 231 128T97 540Q97 791 227 951T565 1116Q758 1116 875 978T992 608Q992 599 992 572T991 533H228Q230 322 330 199T594 75Q701 75
780 100T945 171L966 78Q800 -24 591 -24ZM233 633H857Q857 816 778 913T561 1011Q421 1011 335 907T233 633Z" />
<glyph unicode="&#xeb;" horiz-adv-x="1093" d="M288 1218V1395H424V1218H288ZM664 1218V1395H801V1218H664ZM591 -24Q364 -24 231 128T97 540Q97 791 227 951T565 1116Q758 1116 875 978T992 608Q992 599 992 572T991 533H228Q230 322 330 199T594 75Q701 75
780 100T945 171L966 78Q800 -24 591 -24ZM233 633H857Q857 816 778 913T561 1011Q421 1011 335 907T233 633Z" />
<glyph unicode="&#xec;" horiz-adv-x="376" d="M164 1218L-112 1605H46L237 1218H164ZM138 0V1096H263V0H138Z" />
<glyph unicode="&#xed;" horiz-adv-x="376" d="M163 1474L357 1861H511L238 1474H163ZM138 0V1096H263V0H138Z" />
<glyph unicode="&#xee;" horiz-adv-x="376" d="M-65 1218L103 1577H295L466 1218H375L200 1513L24 1218H-65ZM138 0V1096H263V0H138Z" />
<glyph unicode="&#xef;" horiz-adv-x="376" d="M-56 1218V1395H80V1218H-56ZM320 1218V1395H457V1218H320ZM138 0V1096H263V0H138Z" />
<glyph unicode="&#xf0;" horiz-adv-x="1194" d="M593 -28Q498 -28 417 0T278 78T181 194T121 334T101 487Q101 703 234 836T586 970Q636 970 681 960T757 938T824 901T878 861T929 816Q883 900 772 1026T554 1252L272 1133L246 1229L483 1324L232 1546H390L579
1374L868 1500L897 1408L649 1299Q674 1273 715 1231T781 1162T843 1096T903 1027T955 957T1003 880T1041 798T1071 708T1089 610T1096 499Q1096 496 1096 492Q1096 386 1065 294T974 129T816 14T593 -28ZM598 72Q773 72 873 186T973 472Q973 543 948 612T877 740T756
835T592 872Q482 872 399 817T274 676T232 490Q232 412 254 339T320 206T436 109T598 72Z" />
<glyph unicode="&#xf1;" horiz-adv-x="1152" d="M294 1218Q297 1325 338 1364T453 1404Q499 1404 596 1356T717 1308Q733 1308 744 1317T761 1344T769 1373T773 1404H864Q860 1303 825 1261T723 1218Q679 1218 574 1269T445 1321Q392 1321 384 1218H294ZM147 0V1096H255L272
927Q331 1015 430 1065T645 1116Q834 1116 923 1012T1012 680V0H887V736Q882 882 825 946T638 1010Q489 1010 395 935T276 741Q272 694 272 643V0H147Z" />
<glyph unicode="&#xf2;" horiz-adv-x="1190" d="M558 1474L282 1861H440L631 1474H558ZM601 75Q721 75 803 138T923 306T961 545Q961 757 871 886T597 1015Q477 1015 393 951T269 782T230 542Q230 337 325 206T601 75ZM592 -24Q443 -24 330 51T157 254T97 545Q97
667 131 771T230 952T389 1072T600 1116Q754 1116 867 1041T1036 838T1093 547Q1093 383 1035 255T862 52T592 -24Z" />
<glyph unicode="&#xf3;" horiz-adv-x="1190" d="M558 1218L752 1605H906L633 1218H558ZM601 75Q721 75 803 138T923 306T961 545Q961 757 871 886T597 1015Q477 1015 393 951T269 782T230 542Q230 337 325 206T601 75ZM592 -24Q443 -24 330 51T157 254T97 545Q97
667 131 771T230 952T389 1072T600 1116Q754 1116 867 1041T1036 838T1093 547Q1093 383 1035 255T862 52T592 -24Z" />
<glyph unicode="&#xf4;" horiz-adv-x="1190" d="M330 1218L498 1577H690L861 1218H770L595 1513L419 1218H330ZM601 75Q721 75 803 138T923 306T961 545Q961 757 871 886T597 1015Q477 1015 393 951T269 782T230 542Q230 337 325 206T601 75ZM592 -24Q443 -24
330 51T157 254T97 545Q97 667 131 771T230 952T389 1072T600 1116Q754 1116 867 1041T1036 838T1093 547Q1093 383 1035 255T862 52T592 -24Z" />
<glyph unicode="&#xf5;" horiz-adv-x="1190" d="M310 1218Q313 1325 354 1364T469 1404Q515 1404 612 1356T733 1308Q749 1308 760 1317T777 1344T785 1373T789 1404H880Q876 1303 841 1261T739 1218Q695 1218 590 1269T461 1321Q408 1321 400 1218H310ZM601 75Q721
75 803 138T923 306T961 545Q961 757 871 886T597 1015Q477 1015 393 951T269 782T230 542Q230 337 325 206T601 75ZM592 -24Q443 -24 330 51T157 254T97 545Q97 667 131 771T230 952T389 1072T600 1116Q754 1116 867 1041T1036 838T1093 547Q1093 383 1035 255T862
52T592 -24Z" />
<glyph unicode="&#xf6;" horiz-adv-x="1190" d="M338 1218V1395H474V1218H338ZM714 1218V1395H851V1218H714ZM601 75Q721 75 803 138T923 306T961 545Q961 757 871 886T597 1015Q477 1015 393 951T269 782T230 542Q230 337 325 206T601 75ZM592 -24Q443 -24 330
51T157 254T97 545Q97 667 131 771T230 952T389 1072T600 1116Q754 1116 867 1041T1036 838T1093 547Q1093 383 1035 255T862 52T592 -24Z" />
<glyph unicode="&#xf7;" horiz-adv-x="1099" d="M446 82V284H637V82H446ZM60 554V675H1017V554H60ZM446 913V1115H637V913H446Z" />
<glyph unicode="&#xf8;" horiz-adv-x="1190" d="M284 -311L220 -283L351 38Q231 107 164 241T97 545Q97 667 131 771T230 952T389 1072T600 1116Q694 1116 778 1086L910 1410L979 1386L844 1055Q963 987 1028 853T1093 547Q1093 383 1035 255T862 52T592 -24Q498
-24 414 7L284 -311ZM392 139L739 990Q675 1015 597 1015Q477 1015 393 951T269 782T230 542Q230 410 271 304T392 139ZM601 75Q721 75 803 138T923 306T961 545Q961 840 802 955L454 104Q520 75 601 75Z" />
<glyph unicode="&#xf9;" horiz-adv-x="1106" d="M512 1474L236 1861H394L585 1474H512ZM555 -27Q469 -27 396 -8T259 53T160 171T123 350V1096H247V347Q247 269 271 215T340 134T436 95T555 84Q622 84 673 95T768 135T835 216T859 347V1096H983V350Q983 266 959
200T895 92T799 23T683 -16T555 -27Z" />
<glyph unicode="&#xfa;" horiz-adv-x="1106" d="M510 1218L704 1605H858L585 1218H510ZM555 -27Q469 -27 396 -8T259 53T160 171T123 350V1096H247V347Q247 269 271 215T340 134T436 95T555 84Q622 84 673 95T768 135T835 216T859 347V1096H983V350Q983 266 959
200T895 92T799 23T683 -16T555 -27Z" />
<glyph unicode="&#xfb;" horiz-adv-x="1106" d="M282 1218L450 1577H642L813 1218H722L547 1513L371 1218H282ZM555 -27Q469 -27 396 -8T259 53T160 171T123 350V1096H247V347Q247 269 271 215T340 134T436 95T555 84Q622 84 673 95T768 135T835 216T859 347V1096H983V350Q983
266 959 200T895 92T799 23T683 -16T555 -27Z" />
<glyph unicode="&#xfc;" horiz-adv-x="1106" d="M292 1218V1395H428V1218H292ZM668 1218V1395H805V1218H668ZM555 -27Q469 -27 396 -8T259 53T160 171T123 350V1096H247V347Q247 269 271 215T340 134T436 95T555 84Q622 84 673 95T768 135T835 216T859 347V1096H983V350Q983
266 959 200T895 92T799 23T683 -16T555 -27Z" />
<glyph unicode="&#xfd;" horiz-adv-x="981" d="M448 1218L642 1605H796L523 1218H448ZM98 -520Q56 -520 13 -512L4 -410Q7 -410 33 -411T73 -413Q199 -413 262 -370T374 -202Q380 -185 405 -116T445 -7L7 1096H137L510 110Q510 110 555 248Q830 1107 837 1106Q838
1106 836 1096H966Q528 -135 508 -192Q439 -358 346 -439T98 -520Z" />
<glyph unicode="&#xfe;" horiz-adv-x="1175" d="M147 -488V1514H271V907Q311 986 400 1050T611 1116Q833 1116 955 966T1078 560Q1078 395 1029 266T876 57T625 -23Q558 -23 494 -3T368 65T271 183V-479L147 -488ZM621 78Q683 78 734 100T821 162T881 249T921
354T941 461T948 564Q948 622 939 679T905 798T842 906T742 981T599 1011Q513 1011 448 974T345 872T289 730T270 564Q270 487 280 419T316 288T381 179T481 106T621 78Z" />
<glyph unicode="&#xff;" horiz-adv-x="981" d="M228 1474V1651H364V1474H228ZM604 1474V1651H741V1474H604ZM98 -520Q56 -520 13 -512L4 -410Q7 -410 33 -411T73 -413Q199 -413 262 -370T374 -202Q380 -185 405 -116T445 -7L7 1096H137L510 110Q510 110 555 248Q830
1107 837 1106Q838 1106 836 1096H966Q528 -135 508 -192Q439 -358 346 -439T98 -520Z" />
<glyph unicode="&#x2018;" horiz-adv-x="541" d="M104 1161L344 1619H420L258 1161H104Z" />
<glyph unicode="&#x2019;" horiz-adv-x="532" d="M166 1161L252 1619H382L259 1161H166Z" />
<glyph unicode="&#x201a;" horiz-adv-x="480" d="M130 -240L215 218H349L227 -240H130Z" />
<glyph unicode="&#x201c;" horiz-adv-x="854" d="M104 1161L341 1619H420L259 1161H104ZM419 1161L653 1619H732L573 1161H419Z" />
<glyph unicode="&#x201d;" horiz-adv-x="723" d="M113 1161L200 1619H335L206 1161H113ZM394 1161L481 1619H619L492 1161H394Z" />
<glyph unicode="&#x201e;" horiz-adv-x="734" d="M111 -240L192 218H321L204 -240H111ZM409 -240L487 218H621L498 -240H409Z" />
<glyph unicode="&#x2022;" horiz-adv-x="808" d="M404 535Q341 535 290 556T208 612T161 690T145 782Q145 831 162 876T210 958T292 1017T404 1039Q467 1039 517 1018T599 960T646 880T663 788T647 695T599 614T517 557T404 535Z" />
<glyph unicode="&#x2039;" horiz-adv-x="636" d="M372 187L150 593L377 993H488L270 593L483 187H372Z" />
<glyph unicode="&#x203a;" horiz-adv-x="632" d="M155 187L373 595L161 993H272L493 595L267 187H155Z" />
</font>
</defs>
</svg>
